Kategorien
Alles andere

MKV zu MP4 konvertieren mit FFMPEG

Gerade wenn ich Screencasts mit OBS Studio aufnehme, erzeugt die Software mir eine MKV-Datei. Diese kann ich dann aber nicht in meiner Videoschnitt-Software weiter verarbeiten – dazu brauche ich eine MP4-Datei. Hier erfährst du, wie du mit dem kostenlosen Tool „FFMPEG“ die Datei konvertieren kannst.

Kostenloser Konverter: FFMPEG

Zuallererst benötigst du FFMPEG. Du kannst es kostenlos beim Hersteller herunterladen: https://ffmpeg.org/download.html (ext. Link)

Die Toolsammlung gibt es für Windows, Mac und Linux. Nicht erschrecken! Die Toolsammlung ist kommandozeilenbasiert!

CMD-Befehl

Ich gehe mal davon aus, dass du Windows nutzt. Wenn nicht, so solltest du die Befehle dennoch leicht „übersetzen“ können!

ffmpeg.exe -i screencast.mkv -codec copy screencast_mp4.mp4

Der Parameter „-i“ steht für die Input-Datei.

„-codec copy“ bedeutet, dass ffmpeg die Auflösung, Bitrate, usw. gleich der Input-Datei kopiert.

Bei einem 1-Stunden-Video (ca. 1 GB) dauert die Konvertierung gerade 2 Sekunden!

Beispiel

D:\Programme\ffmpeg>ffmpeg.exe -i "C:\Users\RBX\Videos\screencast.mkv" -codec copy "C:\Users\RBX\Videos\screencast_mp4.mp4"
ffmpeg version 4.2.2 Copyright (c) 2000-2019 the FFmpeg developers
  built with gcc 9.2.1 (GCC) 20200122
  configuration: --enable-gpl --enable-version3 --enable-sdl2 --enable-fontconfig --enable-gnutls --enable-iconv --enable-libass --enable-libdav1d --enable-libbluray --enable-libfreetype --enable-libmp3lame --enable-libopencore-amrnb --enable-libopencore-amrwb --enable-libopenjpeg --enable-libopus --enable-libshine --enable-libsnappy --enable-libsoxr --enable-libtheora --enable-libtwolame --enable-libvpx --enable-libwavpack --enable-libwebp --enable-libx264 --enable-libx265 --enable-libxml2 --enable-libzimg --enable-lzma --enable-zlib --enable-gmp --enable-libvidstab --enable-libvorbis --enable-libvo-amrwbenc --enable-libmysofa --enable-libspeex --enable-libxvid --enable-libaom --enable-libmfx --enable-amf --enable-ffnvcodec --enable-cuvid --enable-d3d11va --enable-nvenc --enable-nvdec --enable-dxva2 --enable-avisynth --enable-libopenmpt
  libavutil      56. 31.100 / 56. 31.100
  libavcodec     58. 54.100 / 58. 54.100
  libavformat    58. 29.100 / 58. 29.100
  libavdevice    58.  8.100 / 58.  8.100
  libavfilter     7. 57.100 /  7. 57.100
  libswscale      5.  5.100 /  5.  5.100
  libswresample   3.  5.100 /  3.  5.100
  libpostproc    55.  5.100 / 55.  5.100
Input #0, matroska,webm, from 'C:\Users\RBX\Videos\screencast.mkv':
  Metadata:
    ENCODER         : Lavf58.29.100
  Duration: 00:50:33.60, start: 0.000000, bitrate: 2728 kb/s
    Stream #0:0: Video: h264 (High), yuv420p(tv, bt709, progressive), 1920x1080 [SAR 1:1 DAR 16:9], 60 fps, 60 tbr, 1k tbn, 120 tbc (default)
    Metadata:
      DURATION        : 00:50:33.600000000
    Stream #0:1: Audio: aac (LC), 48000 Hz, stereo, fltp (default)
    Metadata:
      title           : Track1
      DURATION        : 00:50:33.536000000
Output #0, mp4, to 'C:\Users\RBX\Videos\screencast_mp4.mp4':
  Metadata:
    encoder         : Lavf58.29.100
    Stream #0:0: Video: h264 (High) (avc1 / 0x31637661), yuv420p(tv, bt709, progressive), 1920x1080 [SAR 1:1 DAR 16:9], q=2-31, 60 fps, 60 tbr, 16k tbn, 1k tbc (default)
    Metadata:
      DURATION        : 00:50:33.600000000
    Stream #0:1: Audio: aac (LC) (mp4a / 0x6134706D), 48000 Hz, stereo, fltp (default)
    Metadata:
      title           : Track1
      DURATION        : 00:50:33.536000000
Stream mapping:
  Stream #0:0 -> #0:0 (copy)
  Stream #0:1 -> #0:1 (copy)
Press [q] to stop, [?] for help
frame=182014 fps=39219 q=-1.0 Lsize= 1013217kB time=00:50:33.53 bitrate=2736.2kbits/s speed= 654x
video:925719kB audio:82285kB subtitle:0kB other streams:0kB global headers:0kB muxing overhead: 0.517126%

Schreibe einen Kommentar

Deine E-Mail-Adresse wird nicht veröffentlicht.